Wait Until Dark(1967)MPEG-4[DaScubaDude] Torrent Free Download

Seeders : 418   &   Leechers : 282      20-07-2017 (1 year)
Wait Until Dark(1967)MPEG-4[DaScubaDude] Torrent Download
Added: ago by dascubadude ***** in Movies   1,008.8 MB   Hits : 29
Info Hash: E60FAA5EA9D4291C9B8AF750899E7BA7857180D4 Download
Wait Until Dark(1967)MPEG-4[DaScubaDude] Torrent Download

Anonymous and Direct Download movies , software , shows...

Fast Safe Anonymous
movies, software, shows...
Wait Until Dark
Horror /Thriller  .   108 min   7.8/10
Director : Terence Young  

Released:
26 Oct 1967
Susy was recently blinded and recently married. Susy's husband, Sam, is asked to hold a doll for a woman he doesn't know as they get off an airplane. The woman disappears. Later, she's found dead by her former associates, Mike and Carlino, small-time hoods, in Susy.... See More 's basement apartment. (Both occupants of the apartment are then absent.) The doll woman's newer partner in crime, Harry Rote, who murdered her for self-dealing, presses Mike and Carlino into a scheme to recover the doll, which contains a fortune in smuggled heroin. After disposing of the body, the thugs return while Susy is present to continue their search. They assume Susy's blindness will enable them to search her apartment under her very nose for the doll. In Sam's absence, Mike pretends to be an old friend of Sam's, while the three together spin for Susy a story of a murder investigation of her husband from which only the finding of the missing doll can save him. Rote is a predator, and his stalking of Susy becomes ever more obvious as the blind woman's predicament becomes ever more desperate.

Torrent Description




[youtube]ogGKBiMX8KU[/youtube]

Wait Until Dark (1967)
Not Rated | 1h 48min | Horror, Thriller | 26 October 1967 (USA)
A recently blinded woman is terrorized by a trio of thugs while they search for a heroin-stuffed doll they believe is in her apartment.
Director: Terence Young
Writers: Frederick Knott (play), Robert Carrington (screenplay) |
Stars: Audrey Hepburn, Alan Arkin, Richard Crenna

General
Complete name : Wait Until Dark\WAIT_UNTIL_DARK_Title1.mp4
Format : MPEG-4
Format profile : Base Media
Codec ID : isom (isom/iso2/avc1/mp41)
File size : 1 009 MiB
Duration : 1 h 47 min
Overall bit rate mode : Variable
Overall bit rate : 1 310 kb/s
Movie name : WAIT_UNTIL_DARK
Genre : Thriller
Writing application : Lavf54.6.100

Video
ID : 1
Format : AVC
Format/Info : Advanced Video Codec
Format profile : [email protected]
Format settings, CABAC : No
Format settings, ReFrames : 6 frames
Codec ID : avc1
Codec ID/Info : Advanced Video Coding
Duration : 1 h 47 min
Bit rate : 1 190 kb/s
Width : 720 pixels
Height : 404 pixels
Display aspect ratio : 16:9
Frame rate mode : Constant
Frame rate : 29.970 (30000/1001) FPS
Color space : YUV
Chroma subsampling : 4:2:0
Bit depth : 8 bits
Scan type : Progressive
Bits/(Pixel*Frame) : 0.136
Stream size : 916 MiB (91%)

Audio
ID : 2
Format : AAC
Format/Info : Advanced Audio Codec
Format profile : LC
Codec ID : 40
Duration : 1 h 47 min
Bit rate mode : Variable
Bit rate : 114 kb/s
Maximum bit rate : 128 kb/s
Channel(s) : 2 channels
Channel(s)_Original : 1 channel
Channel positions : Front: C
Sampling rate : 44.1 kHz
Frame rate : 43.066 FPS (1024 spf)
Compression mode : Lossy
Stream size : 87.7 MiB (9%)
Default : Yes
Alternate group : 1




Sharing Widget


No Comments For This Torrent . Be The First to Comment

You must Login to Comment . Click Here to Login

Menu 1

Some content in menu 1.

Wait Until Dark(1967)MPEG-4[DaScubaDude] (Size: 1,008.8 MB)
  Wait Until Dark(1967)MPEG-4[DaScubaDude] 1,008.8 MB
tracker name
udp://tracker.leechers-paradise.org:6969/announce
udp://zer0day.ch:1337/announce
udp://open.demonii.com:1337/announce
udp://tracker.coppersurfer.tk:6969/announce
udp://exodus.desync.com:6969/announce
µTorrent compatible trackers list

Relative Torrents

Torrent Name Size Age SEED LEECH
How to Get Away with Murder S05E08 I Wan to Love You Until the Day I Die 720p A
Posted by    EZTVag   in   TV
807.7 MB 1 day 626 263
How to Get Away with Murder S05E08 I Wan to Love You Until the Day I Die 720p A
Posted by    mazemaze16   in   TV
810.3 MB 1 day 517 961
How to Get Away with Murder S05E08 I Wan to Love You Until the Day I Die 1080p
Posted by    mazemaze16   in   TV
1.9 GB 1 day 675 188
Express Vpn Activation Code (valid until19 Nov 2018) [with autorenews]
Posted by    JackieALF   in   Applications
0.1 KB 6 days 571 558
Long Lost Family US S05E03 Waiting a Liftime 480p x264-mSD[TGx]
Posted by    mazemaze16   in   TV
304.8 MB 1 week 58 993