The Last Witch Hunter 2015 2160p UHD HDR Torrent Free Download

Seeders : 694   &   Leechers : 605      28-02-2018 (9 months)
The Last Witch Hunter 2015 2160p UHD HDR Torrent Download
Added: ago by UHDLorD ***** in Movies   4.6 GB   Hits : 176
Info Hash: 48C2101F96AC7026FA407C9EAB33AB95F226BD69 Download
The Last Witch Hunter 2015 2160p UHD HDR Torrent Download

Anonymous and Direct Download movies , software , shows...

Fast Safe Anonymous
movies, software, shows...
The Last Witch Hunter
Action /Adventure /Fantasy  .   106 min   6.0/10
Director : Breck Eisner  
Tags: The  Last  Witch  Hunter  2015  2160p  

Released:
23 Oct 2015
The modern world holds many secrets, but the most astounding secret of all is that witches still live amongst us; vicious supernatural creatures intent on unleashing the Black Death upon the world. Armies of witch hunters battled the unnatural enemy across the glob.... See More e for centuries, including Kaulder, a valiant warrior who managed to slay the all-powerful Queen Witch, decimating her followers in the process. In the moments right before her death, the Queen curses Kaulder with her own immortality, forever separating him from his beloved wife and daughter in the afterlife. Today Kaulder is the only one of his kind remaining, and has spent centuries hunting down rogue witches, all the while yearning for his long-lost loved ones. However, unbeknownst to Kaulder, the Queen Witch is resurrected and seeks revenge on her killer causing an epic battle that will determine the survival of the human race.

Torrent Description



Quote:

/!\ If you do not have a hdr monitor. Do this to reproduce right colors.

Download madVR ( www.madvr.com/ ).
Config: Unzip madVR -> copy madVR folder to C:\Program Files\ -> Run as administrator install.bat -> OK.

Download Media Player Classic - BE ( http://sourceforge.net/projects/mpcbe/ ).
Config: MPC-BE -> View -> Options -> Video -> Video Renderer -> Select madVR -> OK.

/!\ Original 4K releases with much noise, most are old movies. With much noise more bitrate is needed to maintain the quality and final file size are bigger. Releases with 60fps are bigger too.



Release info:


>Encoded by: [WMAN-LorD]
>HDR working!
>Subtitles.
>Chapters.
>Cover.
>SSIM:
>PSNR:
>Source: Blu-ray










Code:



General
Unique ID : 221226674690515366511457094024354726244 (0xA66EB52DAFB1E28EB41006AC02FA0164)
Complete name : The.Last.Witch.Hunter.2015.2160p.UHD.HDR.BluRay.(x265 10bit DD5.1).[WMAN-LorD].mkv
Format : Matroska
Format version : Version 4 / Version 2
File size : 4.57 GiB
Duration : 1 h 46 min
Overall bit rate : 6 135 kb/s
Encoded date : UTC 2018-02-26 16:22:48
Writing application : mkvmerge v20.0.0 ('I Am The Sun') 64-bit
Writing library : libebml v1.3.5 + libmatroska v1.4.8
Cover : Yes
Attachments : cover.jpg

Video
ID : 1
Format : HEVC
Format/Info : High Efficiency Video Coding
Format profile : Main [email protected]@Main
Codec ID : V_MPEGH/ISO/HEVC
Duration : 1 h 46 min
Bit rate : 5 471 kb/s
Width : 3 840 pixels
Height : 2 160 pixels
Display aspect ratio : 16:9
Frame rate mode : Constant
Frame rate : 23.976 (24000/1001) FPS
Color space : YUV
Chroma subsampling : 4:2:0
Bit depth : 10 bits
Bits/(Pixel*Frame) : 0.028
Stream size : 4.07 GiB (89%)
Title : [WMAN-LorD]
Language : English
Default : Yes
Forced : No
Color range : Limited
Color primaries : BT.2020
Transfer characteristics : PQ
Matrix coefficients : BT.2020 non-constant

Audio
ID : 2
Format : AC-3
Format/Info : Audio Coding 3
Format settings, Endianness : Big
Codec ID : A_AC3
Duration : 1 h 46 min
Bit rate mode : Constant
Bit rate : 640 kb/s
Channel(s) : 6 channels
Channel positions : Front: L C R, Side: L R, LFE
Sampling rate : 48.0 kHz
Frame rate : 31.250 FPS (1536 SPF)
Bit depth : 16 bits
Compression mode : Lossy
Stream size : 488 MiB (10%)
Language : English
Service kind : Complete Main
Default : Yes
Forced : No

Text #1
ID : 3
Format : UTF-8
Codec ID : S_TEXT/UTF8
Codec ID/Info : UTF-8 Plain Text
Duration : 1 h 44 min
Bit rate : 34 b/s
Count of elements : 889
Stream size : 26.8 KiB (0%)
Title : Portuguese Brazil
Language : Portuguese
Default : Yes
Forced : No

Text #2
ID : 4
Format : PGS
Muxing mode : zlib
Codec ID : S_HDMV/PGS
Codec ID/Info : Picture based subtitle format used on BDs/HD-DVDs
Duration : 1 h 35 min
Bit rate : 24.2 kb/s
Count of elements : 1794
Stream size : 16.6 MiB (0%)
Language : English
Default : No
Forced : No

Text #3
ID : 5
Format : PGS
Muxing mode : zlib
Codec ID : S_HDMV/PGS
Codec ID/Info : Picture based subtitle format used on BDs/HD-DVDs
Duration : 1 h 37 min
Bit rate : 29.3 kb/s
Count of elements : 2466
Stream size : 20.4 MiB (0%)
Title : SDH
Language : English
Default : No
Forced : No

Text #4
ID : 6
Format : PGS
Muxing mode : zlib
Codec ID : S_HDMV/PGS
Codec ID/Info : Picture based subtitle format used on BDs/HD-DVDs
Duration : 1 h 35 min
Bit rate : 24.3 kb/s
Count of elements : 1806
Stream size : 16.6 MiB (0%)
Title : Latin American
Language : Spanish
Default : No
Forced : No

Menu
00:00:00.000 : en:Chapter 1
00:08:01.564 : en:Chapter 2
00:16:26.235 : en:Chapter 3
00:25:18.517 : en:Chapter 4
00:31:01.068 : en:Chapter 5
00:36:48.248 : en:Chapter 6
00:43:08.920 : en:Chapter 7
00:47:09.493 : en:Chapter 8
00:54:09.329 : en:Chapter 9
01:00:32.963 : en:Chapter 10
01:08:02.203 : en:Chapter 11
01:14:44.105 : en:Chapter 12
01:21:04.068 : en:Chapter 13
01:29:14.975 : en:Chapter 14
01:32:57.322 : en:Chapter 15
01:37:28.342 : en:Chapter 16













Sharing Widget


No Comments For This Torrent . Be The First to Comment

You must Login to Comment . Click Here to Login

Menu 1

Some content in menu 1.

The Last Witch Hunter 2015 2160p UHD HDR BluRay (x265 10bit DD5 1) [WM (Size: 4.6 GB)
  The Last Witch Hunter 2015 2160p UHD HDR BluRay (x265 10bit DD5 1) [WM 4.6 GB
tracker name
udp://tracker.leechers-paradise.org:6969/announce
udp://zer0day.ch:1337/announce
udp://open.demonii.com:1337/announce
udp://tracker.coppersurfer.tk:6969/announce
udp://exodus.desync.com:6969/announce
µTorrent compatible trackers list

Relative Torrents

Torrent Name Size Age SEED LEECH
River Runs Red 2018 BluRay 1080p HEVC DT-HD MA5 1-DTOne
Posted by    SaM   in   Movies
6.2 GB 3 minutes 693 466
Peppermint 2018 BluRay 1080p HEVC DTS-HDMA7 1-DTOne
Posted by    SaM   in   Movies
5.9 GB 3 minutes 52 572
Keeping Up With The Kruger S01E08 720p HTV x264-CBFM [eztv]
Posted by    EZTVag   in   TV
896.6 MB 5 minutes 252 438
Keeping Up With The Kruger S01E09 720p HTV x264-CBFM [eztv]
Posted by    EZTVag   in   TV
800.6 MB 5 minutes 323 581
Keeping Up With The Kruger S01E10 720p HTV x264-CBFM [eztv]
Posted by    EZTVag   in   TV
849.6 MB 5 minutes 64 691