Salvation S01E02 HDTV x264-LOL Torrent Free Download

Seeders : 185   &   Leechers : 267      20-07-2017 (1 year)
Salvation S01E02 HDTV x264-LOL Torrent Download
Added: ago by showstopper ***** in TV   259.3 MB   Hits : 360
Info Hash: 806158E7509A57477A1FB6A39C905A957F518BD1 Download
Salvation S01E02 HDTV x264-LOL Torrent Download

Anonymous and Direct Download movies , software , shows...

Fast Safe Anonymous
movies, software, shows...

Torrent Description



Salvation.S01E02.HDTV.x264-LOL



Complete name : salvation.102.hdtv-lol.mkv
Format : Matroska
Format version : Version 4 / Version 2
File size : 259 MiB
Duration : 42 min 56 s
Overall bit rate : 844 kb/s
Encoded date : UTC 2017-07-19 16:13:32
Writing application : mkvmerge v13.0.0 ('The Juggler') 64bit
Writing library : libebml v1.3.4 + libmatroska v1.4.5

Video
ID : 1
Format : AVC
Format/Info : Advanced Video Codec
Format profile : [email protected]
Format settings, CABAC : Yes
Format settings, ReFrames : 5 frames
Codec ID : V_MPEG4/ISO/AVC
Duration : 42 min 56 s
Bit rate : 725 kb/s
Width : 720 pixels
Height : 404 pixels
Display aspect ratio : 16:9
Frame rate mode : Constant
Frame rate : 23.976 (24000/1001) FPS
Color space : YUV
Chroma subsampling : 4:2:0
Bit depth : 8 bits
Scan type : Progressive
Bits/(Pixel*Frame) : 0.104
Stream size : 223 MiB (86%)
Writing library : x264 core 152 r2851 ba24899
Encoding settings : cabac=1 / ref=5 / deblock=1:1:1 / analyse=0x3:0x133 / me=umh / subme=9 / psy=1 / psy_rd=1.00:0.00 / mixed_ref=1 / me_range=16 / chroma_me=1 / trellis=2 / 8x8dct=1 / cqm=0 / deadzone=21,11 / fast_pskip=0 / chroma_qp_offset=-2 / threads=16 / lookahead_threads=1 / sliced_threads=0 / nr=0 / decimate=1 / interlaced=0 / bluray_compat=0 / constrained_intra=0 / bframes=3 / b_pyramid=2 / b_adapt=2 / b_bias=0 / direct=3 / weightb=1 / open_gop=0 / weightp=2 / keyint=250 / keyint_min=23 / scenecut=40 / intra_refresh=0 / rc_lookahead=60 / rc=crf / mbtree=1 / crf=19.0 / qcomp=0.60 / qpmin=0 / qpmax=69 / qpstep=4 / ip_ratio=1.40 / aq=1:1.00
Language : English
Default : Yes
Forced : No
Color range : Limited
Matrix coefficients : BT.709

Audio
ID : 2
Format : AAC
Format/Info : Advanced Audio Codec
Format profile : LC
Codec ID : A_AAC
Duration : 42 min 56 s
Bit rate : 117 kb/s
Channel(s) : 2 channels
Channel positions : Front: L R
Sampling rate : 48.0 kHz
Frame rate : 46.875 FPS (1024 spf)
Compression mode : Lossy
Delay relative to video : 9 ms
Stream size : 36.0 MiB (14%)
Default : Yes
Forced : No






Click To View Screenshot

Click To View Screenshot

Click To View Screenshot




Sharing Widget


No Comments For This Torrent . Be The First to Comment

You must Login to Comment . Click Here to Login

Menu 1

Some content in menu 1.

Salvation S01E02 HDTV x264-LOL (Size: 259.3 MB)
  Salvation S01E02 HDTV x264-LOL 259.3 MB
tracker name
udp://tracker.leechers-paradise.org:6969/announce
udp://zer0day.ch:1337/announce
udp://open.demonii.com:1337/announce
udp://tracker.coppersurfer.tk:6969/announce
udp://exodus.desync.com:6969/announce
µTorrent compatible trackers list

Relative Torrents

Torrent Name Size Age SEED LEECH
Bigg Boss S12E64 18th November 2018 (Weeened ka Vaar) 720p HDTV [ HDHub4u ]
Posted by    300movieshub   in   Movies
505.7 MB 1 hour 225 187
UFC Fight Night 140 Early Prelims HDTV x64-VERUM
Posted by    Trige   in   TV
603.4 MB 1 hour 280 356
Bigg Boss 12 (2018) Hindi - EP63 (NOV 18 - 720p - HDTV - x264 - 500MB - AAC -
Posted by    MovCr   in   Movies
496.3 MB 1 hour 297 943
UFC Fight Night 140 HDTV x264-VERUM
Posted by    Trige   in   TV
1.8 GB 1 hour 292 369
Udanchhoo (2018) Hindi HDTV-Rip - 700MB x264 - 1CD - MP3
Posted by    MusicLibrary   in   Movies
706.9 MB 2 hours 878 963