Salvation S01E02 720p HDTV X264-DIMENSIO Torrent Free Download

Seeders : 669   &   Leechers : 185      20-07-2017 (1 year)
Salvation S01E02 720p HDTV X264-DIMENSIO Torrent Download
Added: ago by showstopper ***** in TV   879.3 MB   Hits : 350
Info Hash: E7069324577AB1BBBEFDF125B348BEC080D9357D Download
Salvation S01E02 720p HDTV X264-DIMENSIO Torrent Download

Anonymous and Direct Download movies , software , shows...

Fast Safe Anonymous
movies, software, shows...

Torrent Description



Salvation.S01E02.720p.HDTV.X264-DIMENSION



Complete name : Salvation.S01E02.720p.HDTV.X264-DIMENSION.mkv
Format : Matroska
Format version : Version 4 / Version 2
File size : 879 MiB
Duration : 42 min 56 s
Overall bit rate : 2 863 kb/s
Encoded date : UTC 2017-07-19 17:05:15
Writing application : mkvmerge v13.0.0 ('The Juggler') 64bit
Writing library : libebml v1.3.4 + libmatroska v1.4.5

Video
ID : 1
Format : AVC
Format/Info : Advanced Video Codec
Format profile : [email protected]
Format settings, CABAC : Yes
Format settings, ReFrames : 9 frames
Codec ID : V_MPEG4/ISO/AVC
Duration : 42 min 56 s
Bit rate : 2 478 kb/s
Width : 1 280 pixels
Height : 720 pixels
Display aspect ratio : 16:9
Frame rate mode : Constant
Frame rate : 23.976 (24000/1001) FPS
Color space : YUV
Chroma subsampling : 4:2:0
Bit depth : 8 bits
Scan type : Progressive
Bits/(Pixel*Frame) : 0.112
Stream size : 761 MiB (87%)
Writing library : x264 core 152 r2851 ba24899
Encoding settings : cabac=1 / ref=9 / deblock=1:-2:-2 / analyse=0x3:0x133 / me=umh / subme=10 / psy=1 / psy_rd=1.00:0.00 / mixed_ref=1 / me_range=32 / chroma_me=1 / trellis=2 / 8x8dct=1 / cqm=0 / deadzone=21,11 / fast_pskip=0 / chroma_qp_offset=-2 / threads=16 / lookahead_threads=1 / sliced_threads=0 / nr=0 / decimate=1 / interlaced=0 / bluray_compat=0 / constrained_intra=0 / bframes=5 / b_pyramid=2 / b_adapt=2 / b_bias=0 / direct=3 / weightb=1 / open_gop=0 / weightp=2 / keyint=250 / keyint_min=23 / scenecut=40 / intra_refresh=0 / rc_lookahead=60 / rc=crf / mbtree=1 / crf=18.0 / qcomp=0.60 / qpmin=0 / qpmax=69 / qpstep=4 / ip_ratio=1.40 / aq=1:1.00
Language : English
Default : Yes
Forced : No
Color range : Limited
Matrix coefficients : BT.709

Audio
ID : 2
Format : AC-3
Format/Info : Audio Coding 3
Format settings, Endianness : Big
Codec ID : A_AC3
Duration : 42 min 56 s
Bit rate mode : Constant
Bit rate : 384 kb/s
Channel(s) : 6 channels
Channel positions : Front: L C R, Side: L R, LFE
Sampling rate : 48.0 kHz
Frame rate : 31.250 FPS (1536 spf)
Bit depth : 16 bits
Compression mode : Lossy
Stream size : 118 MiB (13%)
Service kind : Complete Main
Default : Yes
Forced : No






Click To View Screenshot

Click To View Screenshot

Click To View Screenshot




Sharing Widget


No Comments For This Torrent . Be The First to Comment

You must Login to Comment . Click Here to Login

Menu 1

Some content in menu 1.

Salvation S01E02 720p HDTV X264-DIMENSION (Size: 879.3 MB)
  Salvation S01E02 720p HDTV X264-DIMENSION 879.3 MB
tracker name
udp://tracker.leechers-paradise.org:6969/announce
udp://zer0day.ch:1337/announce
udp://open.demonii.com:1337/announce
udp://tracker.coppersurfer.tk:6969/announce
udp://exodus.desync.com:6969/announce
µTorrent compatible trackers list

Relative Torrents

Torrent Name Size Age SEED LEECH
Last Man Standing S07E07 Dreams Vs Realt 720p AMZN WEBRip DDP5 1 x264-NTb
Posted by    Trige   in   TV
606.4 MB 9 minutes 964 655
The Ballad Of Buster Scruggs 2018 Movies720p HDRip x264 5 1 ESubs with Sample
Posted by    nehalpuja   in   Movies
1,004.5 MB 10 minutes 488 965
Outlander S04E03 720p WEB h264-CONVOY [etv]
Posted by    EZTVag   in   TV
1.2 GB 14 minutes 987 557
Stree (2018) 720p Hindi Proper HQ HDRip x264 - 5 1 - 1 3GB
Posted by    rock3   in   Movies
1.3 GB 16 minutes 459 455
Cooks Country From Americas Test KitchenS11E12 Holiday Roast and Potatoes 720p
Posted by    EZTVag   in   TV
540.6 MB 19 minutes 323 115