Nightcap 2016 S02E08 720p HDTV x264-FLEE Torrent Free Download

Seeders : 462   &   Leechers : 715      20-07-2017 (1 year)
Nightcap 2016 S02E08 720p HDTV x264-FLEE Torrent Download
Added: ago by showstopper ***** in TV   401.2 MB   Hits : 323
Info Hash: 777841B18F9BA42AA8D09C8ACEF22DDBDDE4BE0A Download
Nightcap 2016 S02E08 720p HDTV x264-FLEE Torrent Download

Anonymous and Direct Download movies , software , shows...

Fast Safe Anonymous
movies, software, shows...
Nightcap
Comedy   .   21 min   5.2/10
Director : N/A  
Writer: Alexandra Wentworth  
Tags: Nightcap  2016  S02E08  720p  HDTV  x264-FLEET  

Released:
16 Nov 2016
Insanity, absurdity and urgency reign, and it's up to head talent booker Staci (Ali Wentworth) to wrangle both her dysfunctional staff and the myriad of stars who bring their quirks, diva demands and peculiar antics to the set.

Torrent Description



Nightcap.2016.S02E08.720p.HDTV.x264-FLEET



Complete name : Nightcap.2016.S02E08.720p.HDTV.x264-FLEET.mkv
Format : Matroska
Format version : Version 2
File size : 401 MiB
Duration : 20 min 35 s
Overall bit rate : 2 724 kb/s
Writing application : x264.exe
Writing library : mkv2rls x264-tv version built on 2016.10.12

Video
ID : 1
Format : AVC
Format/Info : Advanced Video Codec
Format profile : [email protected]
Format settings, CABAC : Yes
Format settings, ReFrames : 5 frames
Codec ID : V_MPEG4/ISO/AVC
Duration : 20 min 35 s
Bit rate : 2 414 kb/s
Width : 1 280 pixels
Height : 716 pixels
Display aspect ratio : 16:9
Frame rate mode : Constant
Frame rate : 23.976 (24000/1001) FPS
Color space : YUV
Chroma subsampling : 4:2:0
Bit depth : 8 bits
Scan type : Progressive
Bits/(Pixel*Frame) : 0.110
Stream size : 356 MiB (89%)
Writing library : x264 core 152 r2851 ba24899
Encoding settings : cabac=1 / ref=5 / deblock=1:0:0 / analyse=0x3:0x113 / me=hex / subme=8 / psy=1 / psy_rd=1.00:0.00 / mixed_ref=1 / me_range=16 / chroma_me=1 / trellis=2 / 8x8dct=1 / cqm=0 / deadzone=21,11 / fast_pskip=1 / chroma_qp_offset=-2 / threads=18 / lookahead_threads=3 / sliced_threads=0 / nr=0 / decimate=1 / interlaced=0 / bluray_compat=0 / constrained_intra=0 / bframes=3 / b_pyramid=2 / b_adapt=1 / b_bias=0 / direct=3 / weightb=1 / open_gop=0 / weightp=2 / keyint=250 / keyint_min=23 / scenecut=40 / intra_refresh=0 / rc_lookahead=50 / rc=crf / mbtree=1 / crf=18.0 / qcomp=0.60 / qpmin=0 / qpmax=69 / qpstep=4 / ip_ratio=1.40 / aq=1:1.00
Language : English
Default : Yes
Forced : No
Color range : Limited
Matrix coefficients : BT.709

Audio
ID : 2
Format : AC-3
Format/Info : Audio Coding 3
Format settings, Endianness : Big
Codec ID : A_AC3
Duration : 20 min 35 s
Bit rate mode : Constant
Bit rate : 256 kb/s
Channel(s) : 6 channels
Channel(s)_Original : 2 channels
Channel positions : Front: L R
Sampling rate : 48.0 kHz
Frame rate : 31.250 FPS (1536 spf)
Bit depth : 16 bits
Compression mode : Lossy
Stream size : 37.7 MiB (9%)
Language : English
Service kind : Complete Main
Default : Yes
Forced : No

Text
ID : 3
Format : UTF-8
Codec ID : S_TEXT/UTF8
Codec ID/Info : UTF-8 Plain Text
Title : English
Language : English
Default : No
Forced : No






Click To View Screenshot

Click To View Screenshot

Click To View Screenshot




Sharing Widget


No Comments For This Torrent . Be The First to Comment

You must Login to Comment . Click Here to Login

Menu 1

Some content in menu 1.

Nightcap 2016 S02E08 720p HDTV x264-FLEET (Size: 401.2 MB)
  Nightcap 2016 S02E08 720p HDTV x264-FLEET 401.2 MB
tracker name
udp://tracker.leechers-paradise.org:6969/announce
udp://zer0day.ch:1337/announce
udp://open.demonii.com:1337/announce
udp://tracker.coppersurfer.tk:6969/announce
udp://exodus.desync.com:6969/announce
µTorrent compatible trackers list

Relative Torrents

Torrent Name Size Age SEED LEECH
48 Hours S31E08 720p WEB x264-CookieMonser [eztv]
Posted by    EZTVag   in   TV
999.0 MB 5 minutes 313 637
48 Hours S31E07 720p WEB x264-CookieMonser [eztv]
Posted by    EZTVag   in   TV
998.9 MB 10 minutes 618 471
Get a Room with Carson and Thom S01E05 70p WEB x264-WEBSTER [eztv]
Posted by    EZTVag   in   TV
822.6 MB 20 minutes 255 920
Switch Girl S01E07 720p WEB x264-WaLMaRT[eztv]
Posted by    EZTVag   in   TV
363.2 MB 30 minutes 272 783
Gegege No Kitaro S01E33 720p WEB x264-PLTONiUM [eztv]
Posted by    EZTVag   in   TV
411.4 MB 40 minutes 295 319