Nebraska 2013 720p Esub BluRay Dual Aud Torrent Free Download

Seeders : 115   &   Leechers : 731      28-02-2018 (9 months)
Nebraska 2013 720p Esub BluRay Dual Aud Torrent Download
Added: ago by PENDUDESI ***** in Movies   630.4 MB   Hits : 39
Info Hash: 4706E0C4BAAD22D0D9C49F7B6073C864CD354E66 Download
Nebraska 2013 720p Esub BluRay Dual Aud Torrent Download

Anonymous and Direct Download movies , software , shows...

Fast Safe Anonymous
movies, software, shows...
Nebraska
Adventure /Comedy /Drama  .   115 min   7.7/10
Starring : Bruce Dern  Will Forte  June Squibb  Bob Odenkirk  
Director : Alexander Payne  
Writer: Bob Nelson  
Tags: Nebraska  2013  720p  Esub  BluRay    

Released:
24 Jan 2014
"NEBRASKA" is a father and son road trip, from Billings, Montana to Lincoln, Nebraska that gets waylaid at a small town in central Nebraska, where the father grew up and has scores to settle. Told with deadpan humor and a unique visual style, it's ultimately the st.... See More ory of a son trying to get through to a father he doesn't understand.

Torrent Description




Format : Matroska
Format version : Version 4 / Version 2
File size : 630 MiB
Duration : 1 h 54 min
Overall bit rate : 768 kb/s
Movie name : Nebraska 2013 GOPISAHI

Video
Format : AVC
Codec ID : V_MPEG4/ISO/AVC
Duration : 1 h 54 min
Bit rate : 600 kb/s
Width : 1 280 pixels
Height : 536 pixels
Display aspect ratio : 2.40:1
Frame rate mode : Constant
Frame rate : 23.976 (24000/1001) FPS
Color space : YUV
Chroma subsampling : 4:2:0
Bit depth : 8 bits
Scan type : Progressive
Bits/(Pixel*Frame) : 0.036
Stream size : 492 MiB (78%)
Title : GOPISAHI
Writing library : x264 core 155 r2893 b00bcaf

Audio #1
Format : AAC
Duration : 1 h 54 min
Bit rate : 87.0 kb/s
Channel(s) : 6 channels
Channel positions : Front: L C R, Side: L R, LFE
Sampling rate : 44.1 kHz
Frame rate : 43.066 FPS (1024 SPF)
Compression mode : Lossy
Stream size : 71.4 MiB (11%)
Title : GOPISAHI
Language : Hindi

Audio #2
Format : AAC
Duration : 1 h 54 min
Bit rate : 78.6 kb/s
Channel(s) : 6 channels
Channel positions : Front: L C R, Side: L R, LFE
Sampling rate : 44.1 kHz
Frame rate : 43.066 FPS (1024 SPF)
Compression mode : Lossy
Stream size : 64.5 MiB (10%)
Title : GOPISAHI
Language : English

Text
Language : English




Sharing Widget


No Comments For This Torrent . Be The First to Comment

You must Login to Comment . Click Here to Login

Menu 1

Some content in menu 1.

Nebraska 2013 720p Esub BluRay Dual Audio English Hindi GOPISAHI (Size: 630.4 MB)
  Nebraska 2013 720p Esub BluRay Dual Audio English Hindi GOPISAHI 630.4 MB
tracker name
udp://tracker.leechers-paradise.org:6969/announce
udp://zer0day.ch:1337/announce
udp://open.demonii.com:1337/announce
udp://tracker.coppersurfer.tk:6969/announce
udp://exodus.desync.com:6969/announce
µTorrent compatible trackers list

Relative Torrents

Torrent Name Size Age SEED LEECH
White Boy Rick 2018 1080p WEB-DL DD5 1 H64-FGT
Posted by    MrStark   in   Movies
3.8 GB 2 minutes 444 630
White Boy Rick 2018 1080p WEB-DL H264 AC-EVO
Posted by    MrStark   in   Movies
3.8 GB 2 minutes 874 884
White Boy Rick 2018 720p WEB-DL DD5 1 X24-CMRG
Posted by    MrStark   in   Movies
3.4 GB 2 minutes 154 743
I Still See You 2018 720p BRRip XviD AC3XVID
Posted by    Trige   in   Movies
2.1 GB 2 minutes 674 956
Bull 2016 S03E10 XviD-AFG[TGx]
Posted by    mazemaze16   in   TV
285.0 MB 6 minutes 618 117