Legends of Tomorrow S03E12 The Curse of Torrent Free Download

Seeders : 930   &   Leechers : 367      28-02-2018 (9 months)
Legends of Tomorrow S03E12 The Curse of Torrent Download
Added: ago by PhunPsyz ***** in TV   792.5 MB   Hits : 40
Info Hash: 1C7EE36AAA5EE6E8AC3323A9139F4856DA383636 Download
Legends of Tomorrow S03E12 The Curse of Torrent Download

Anonymous and Direct Download movies , software , shows...

Fast Safe Anonymous
movies, software, shows...

Torrent Description



http://www.imdb.com/title/tt6464532/?ref_=ttep_ep12

While Sara takes some private time, the Legends follow a lead on the whereabouts of the Earth Totem and find themselves in 1717 on the hunt for Blackbeard's treasure.

Source: QOQ (Amzn) (4.37 GiB)



Format : MPEG-4
Format profile : Base Media / Version 2
Codec ID : mp42 (isom/iso2/avc1/mp41)
File size : 792 MiB
Duration : 42 min 21 s
Overall bit rate mode : Variable
Overall bit rate : 2 616 kb/s

Video
ID : 1
Format : AVC
Format/Info : Advanced Video Codec
Format profile : [email protected]
Format settings : CABAC / 8 Ref Frames
Format settings, CABAC : Yes
Format settings, RefFrames : 8 frames
Codec ID : avc1
Codec ID/Info : Advanced Video Coding
Duration : 42 min 21 s
Bit rate : 2 128 kb/s
Width : 1 920 pixels
Height : 1 080 pixels
Display aspect ratio : 16:9
Frame rate mode : Variable
Frame rate : 23.976 (24000/1001) FPS
Minimum frame rate : 23.974 FPS
Maximum frame rate : 23.981 FPS
Color space : YUV
Chroma subsampling : 4:2:0
Bit depth : 8 bits
Scan type : Progressive
Bits/(Pixel*Frame) : 0.043
Stream size : 645 MiB (81%)
Writing library : x264 core 148 r2708 86b7198

Audio #1
ID : 2
Format : AC-3
Format/Info : Audio Coding 3
Format settings, Endianness : Big
Codec ID : ac-3
Duration : 42 min 21 s
Bit rate mode : Constant
Bit rate : 320 kb/s
Channel(s) : 6 channels
Channel positions : Front: L C R, Side: L R, LFE
Sampling rate : 48.0 kHz
Frame rate : 31.250 FPS (1536 SPF)
Bit depth : 16 bits
Compression mode : Lossy
Stream size : 97.0 MiB (12%)
Title : Surround / Surround
Language : English

Audio #2
ID : 3
Format : AAC
Format/Info : Advanced Audio Codec
Format profile : LC
Codec ID : mp4a-40-2
Duration : 42 min 21 s
Bit rate mode : Variable
Bit rate : 160 kb/s
Channel(s) : 2 channels
Channel positions : Front: L R
Sampling rate : 48.0 kHz
Frame rate : 46.875 FPS (1024 SPF)
Compression mode : Lossy
Stream size : 48.5 MiB (6%)
Title : Stereo / Stereo
Language : English

Text #1
ID : 4
Format : Timed Text
Muxing mode : sbtl
Codec ID : tx3g
Duration : 42 min 15 s
Bit rate mode : Variable
Bit rate : 88 b/s
Stream size : 27.2 KiB (0%)
Language : English
Default : Yes
Forced : No

Text #2
ID : 5
Format : Timed Text
Muxing mode : sbtl
Codec ID : tx3g
Duration : 42 min 15 s
Bit rate mode : Variable
Bit rate : 103 b/s
Stream size : 32.0 KiB (0%)
Language : English
Default : No
Forced : No




Sharing Widget


No Comments For This Torrent . Be The First to Comment

You must Login to Comment . Click Here to Login

Menu 1

Some content in menu 1.

Legends of Tomorrow S03E12 The Curse of the Earth Totem 1080p DD5 1 - (Size: 792.5 MB)
  Legends of Tomorrow S03E12 The Curse of the Earth Totem 1080p DD5 1 - 792.5 MB
tracker name
udp://tracker.leechers-paradise.org:6969/announce
udp://zer0day.ch:1337/announce
udp://open.demonii.com:1337/announce
udp://tracker.coppersurfer.tk:6969/announce
udp://exodus.desync.com:6969/announce
µTorrent compatible trackers list

Relative Torrents

Torrent Name Size Age SEED LEECH
[Erai-raws] Tokyo Ghoul - re 2nd Season 10 [1080p] mkv () - AniDex
Posted by    Sour456Gol   in   Anime
1.3 GB 2 minutes 385 194
[Erai-raws] Tokyo Ghoul - re 2nd Season 10 [720p] mkv () - AniDex
Posted by    Sour456Gol   in   Anime
611.9 MB 2 minutes 399 805
[Erai-raws] Gurazeni 2nd Season - 11 [100p][Multiple Subtitle] mkv () - AniDex
Posted by    Sour456Gol   in   Anime
845.1 MB 2 minutes 340 739
[Erai-raws] Gurazeni 2nd Season - 11 [72p][Multiple Subtitle] mkv () - AniDex
Posted by    Sour456Gol   in   Anime
376.9 MB 2 minutes 607 348
[Erai-raws] Hinomaruzumou - 11 [1080p][Mltiple Subtitle] mkv () - AniDex
Posted by    Sour456Gol   in   Anime
1,003.6 MB 2 minutes 313 160