Belly of the Beast 2003 720p BluRay x264 Torrent Free Download

Seeders : 937   &   Leechers : 859      20-07-2017 (1 year)
Belly of the Beast 2003 720p BluRay x264 Torrent Download
Added: ago by showstopper ***** in Movies   1.8 GB   Hits : 20
Info Hash: 5F192A9A674DB1566D55C41969842BE612B29884 Download
Belly of the Beast 2003 720p BluRay x264 Torrent Download

Anonymous and Direct Download movies , software , shows...

Fast Safe Anonymous
movies, software, shows...
Belly of the Beast
Action   .   91 min   4.7/10
Starring : Steven Seagal  Byron Mann  Monica Lo  Tom Wu  
Director : Siu-Tung Ching  
Writer: James Townsend  
Tags: Belly  of  the  Beast  2003  720p  

Released:
30 Dec 2003
Ten years ago, Jake Hopper was a CIA agent who was stationed in Thailand. Then one day, things went sour, and his partner, Sunti barely escaped with his life...after accidentally killing a woman. Jake called it quits and returned to the United States when his wife .... See More died, and Sunti became a Buddhist monk to atone for his sins. For the past 10 years, Jake has run a successful private security business, and has been raising his daughter Jessica, who is now an adult. While hiking in Thailand, Jessica and her friend Sarah Winthorpe are kidnapped. A group of Islamic fundamentalists known as the Abu Karaf claims responsibility. Sarah is the daughter of United States senator John Winthorpe. For ransom, the Abu Karaf demand the release of 20 prisoners from American custody. The US Secretary of State urges restraint -- he won't negotiate. Tom Collins, an ex-colleague of Jake's, recognizes Jessica on the ransom tape and tips Jake off. Jake knows that he must rescue the girls himself. An old CIA buddy puts Jake in contact with Leon Washington, an active CIA agent who is working in Thailand. Jake goes to Bangkok, and escapes an assassination attempt. Leon arranges a meeting for himself with with Soku -- the internal security chief for General Jantapan. Jantapan is a rebel military general who is making a play to be one of the most powerful men in Thailand. Secretly, Jantapan is messing with some dangerous spiritual forces. Soku provides Jake with a cover story, but the CIA wants Jake out of it -- they are planning to take out the Abu Karaf with the aid of the Thai army, and they don't want a civilian in the middle. Jake is a spiritual man, so he contacts his spiritual master Paijan Paitoon. As Jake is in trouble, Paitoon offers to arrange a divination from the oracle of the order. Jake enlists the help of Sunti. Jake gets Lulu, the girlfriend of arms dealer Fitch McQuoid, to steal information leading to the Abu Karaf. Jake and Sunti follow the leads to a warehouse where they discover evidence of highly sophisticated weaponry. With their enemies now after Lulu, Jake takes Lulu under his wing. Jake shares some of his info with Leon. Can he trust Leon? Another attempt is made on Jake's life -- and this time, Jake is sure that Leon was involved. Finally, the Abu Karaf contact Jake to arrange a meeting -- the pieces are coming together, and Jake figures out that it was not the Abu Karaf who kidnapped Jessica and Sarah. Jantapan tries to send the spirit of an ancient warrior demon to kill Jake, but the ceremony goes wrong and the spirit enters Jantapan himself, giving Jantapan amazing physical and spiritual powers. Jake and Sunti go to meet Mongkol, the leader of the Abu Karaf. Mongkol confirms that ever since the terrorist attacks of September 11, 2001, Jantapan has worked to corner the narcotics and arms markets. It was Jantapan who kidnapped the girls, blaming the Abu Karaf so the army would wipe out his competition. Mongkol knows where the girls are, and he gives Jake plans and intelligence. They both need the girls alive. Jake must engage in a battle that will put both his physical and spiritual powers to the ultimate test.

Torrent Description



Belly.of.the.Beast.2003.720p.BluRay.x264-x0r

ImDb: http://www.imdb.com/title/tt0357474



Complete name : Belly.of.the.Beast.2003.720p.BluRay.x264-x0r.mkv
Format : Matroska
Format version : Version 4 / Version 2
File size : 1.76 GiB
Duration : 1 h 31 min
Overall bit rate : 2 754 kb/s
Movie name : Belly.of.the.Beast.2003.720p.BluRay.x264-x0r
Encoded date : UTC 2017-07-19 22:24:24
Writing application : mkvmerge v7.7.0 ('Six Voices') 64bit built on Mar 1 2015 01:50:05
Writing library : libebml v1.3.1 + libmatroska v1.4.2

Video
ID : 1
Format : AVC
Format/Info : Advanced Video Codec
Format profile : [email protected]
Format settings, CABAC : Yes
Format settings, ReFrames : 8 frames
Codec ID : V_MPEG4/ISO/AVC
Duration : 1 h 31 min
Bit rate : 2 560 kb/s
Width : 1 280 pixels
Height : 720 pixels
Display aspect ratio : 16:9
Frame rate mode : Constant
Frame rate : 23.976 FPS
Color space : YUV
Chroma subsampling : 4:2:0
Bit depth : 8 bits
Scan type : Progressive
Bits/(Pixel*Frame) : 0.116
Stream size : 1.63 GiB (93%)
Writing library : x264 core 142 r2389 956c8d8
Encoding settings : cabac=1 / ref=8 / deblock=1:-2:-2 / analyse=0x3:0x133 / me=umh / subme=9 / psy=1 / psy_rd=1.20:0.25 / mixed_ref=0 / me_range=32 / chroma_me=1 / trellis=2 / 8x8dct=1 / cqm=0 / deadzone=21,11 / fast_pskip=0 / chroma_qp_offset=-4 / threads=12 / lookahead_threads=1 / sliced_threads=0 / nr=0 / decimate=0 / interlaced=0 / bluray_compat=0 / constrained_intra=0 / bframes=4 / b_pyramid=2 / b_adapt=2 / b_bias=0 / direct=3 / weightb=1 / open_gop=0 / weightp=2 / keyint=240 / keyint_min=24 / scenecut=40 / intra_refresh=0 / rc_lookahead=120 / rc=2pass / mbtree=1 / bitrate=2560 / ratetol=1.0 / qcomp=0.00 / qpmin=0 / qpmax=69 / qpstep=4 / cplxblur=20.0 / qblur=0.5 / vbv_maxrate=20000 / vbv_bufsize=25000 / nal_hrd=none / filler=0 / ip_ratio=1.10 / aq=1:1.20
Language : English
Default : Yes
Forced : No
Color range : Limited
Color primaries : BT.709
Transfer characteristics : BT.709
Matrix coefficients : BT.709

Audio
ID : 2
Format : AC-3
Format/Info : Audio Coding 3
Format settings, Endianness : Big
Codec ID : A_AC3
Duration : 1 h 31 min
Bit rate mode : Constant
Bit rate : 192 kb/s
Channel(s) : 2 channels
Channel positions : Front: L R
Sampling rate : 48.0 kHz
Frame rate : 31.250 FPS (1536 spf)
Bit depth : 16 bits
Compression mode : Lossy
Delay relative to video : -5 ms
Stream size : 125 MiB (7%)
Title : Stereo
Language : English
Service kind : Complete Main
Default : Yes
Forced : No

Text
ID : 3
Format : UTF-8
Codec ID : S_TEXT/UTF8
Codec ID/Info : UTF-8 Plain Text
Duration : 1 h 27 min
Bit rate : 36 b/s
Count of elements : 811
Stream size : 23.2 KiB (0%)
Language : English
Default : Yes
Forced : No

Menu
00:00:00.000 : :Chapter 1
00:06:00.087 : :Chapter 2
00:11:47.976 : :Chapter 3
00:17:43.039 : :Chapter 4
00:24:07.298 : :Chapter 5
00:29:19.527 : :Chapter 6
00:34:03.727 : :Chapter 7
00:38:47.094 : :Chapter 8
00:45:10.935 : :Chapter 9
00:49:54.635 : :Chapter 10
00:55:42.274 : :Chapter 11
00:59:56.945 : :Chapter 12
01:04:22.753 : :Chapter 13
01:10:00.256 : :Chapter 14
01:14:45.959 : :Chapter 15
01:20:12.660 : :Chapter 16






Click To View Screenshot

Click To View Screenshot

Click To View Screenshot




Sharing Widget


No Comments For This Torrent . Be The First to Comment

You must Login to Comment . Click Here to Login

Menu 1

Some content in menu 1.

Belly of the Beast 2003 720p BluRay x264-x0r (Size: 1.8 GB)
  Belly of the Beast 2003 720p BluRay x264-x0r 1.8 GB
tracker name
udp://tracker.leechers-paradise.org:6969/announce
udp://zer0day.ch:1337/announce
udp://open.demonii.com:1337/announce
udp://tracker.coppersurfer.tk:6969/announce
udp://exodus.desync.com:6969/announce
µTorrent compatible trackers list

Relative Torrents

Torrent Name Size Age SEED LEECH
48 Hours S31E08 720p WEB x264-CookieMonser [eztv]
Posted by    EZTVag   in   TV
999.0 MB 1 minute 313 637
48 Hours S31E07 720p WEB x264-CookieMonser [eztv]
Posted by    EZTVag   in   TV
998.9 MB 6 minutes 618 471
Get a Room with Carson and Thom S01E05 70p WEB x264-WEBSTER [eztv]
Posted by    EZTVag   in   TV
822.6 MB 16 minutes 255 920
Lucky Luke (1991) [BluRay] [1080p] [YTS][YIFY]
Posted by    YTSAGx   in   Movies
1.4 GB 23 minutes 897 178
Switch Girl S01E07 720p WEB x264-WaLMaRT[eztv]
Posted by    EZTVag   in   TV
363.2 MB 26 minutes 272 783